Browse Source

avformat/mov: Set AVSTREAM_PARSE_HEADERS flag for H264

Signed-off-by: Nicolas Gaullier <nicolas.gaullier@cji.paris>
Signed-off-by: James Almer <jamrial@gmail.com>
master
Nicolas Gaullier 2 months ago
committed by James Almer
parent
commit
8a3f8afa4e
  1. 2
      libavformat/mov.c
  2. 2
      tests/ref/fate/mov-zombie

2
libavformat/mov.c

@ -2443,6 +2443,8 @@ static int mov_finalize_stsd_codec(MOVContext *c, AVIOContext *pb,
sti->need_parsing = AVSTREAM_PARSE_FULL;
break;
case AV_CODEC_ID_AV1:
/* field_order detection of H264 requires parsing */
case AV_CODEC_ID_H264:
sti->need_parsing = AVSTREAM_PARSE_HEADERS;
break;
default:

2
tests/ref/fate/mov-zombie

@ -194,5 +194,5 @@ frame|media_type=video|stream_index=0|key_frame=0|pts=188623|pts_time=2.095811|p
packet|codec_type=video|stream_index=0|pts=197632|pts_time=2.195911|dts=191625|dts_time=2.129167|duration=3003|duration_time=0.033367|size=580|pos=101820|flags=__
frame|media_type=video|stream_index=0|key_frame=0|pts=191626|pts_time=2.129178|pkt_dts=N/A|pkt_dts_time=N/A|best_effort_timestamp=191626|best_effort_timestamp_time=2.129178|pkt_duration=3003|pkt_duration_time=0.033367|pkt_pos=99180|pkt_size=1666|width=160|height=240|pix_fmt=yuv420p|sample_aspect_ratio=2:1|pict_type=P|coded_picture_number=63|display_picture_number=0|interlaced_frame=0|top_field_first=0|repeat_pict=0|color_range=tv|color_space=smpte170m|color_primaries=smpte170m|color_transfer=bt709|chroma_location=topleftside_data|side_data_type=H.26[45] User Data Unregistered SEI message
stream|index=0|codec_name=h264|profile=77|codec_type=video|codec_tag_string=avc1|codec_tag=0x31637661|width=160|height=240|coded_width=160|coded_height=240|closed_captions=0|film_grain=0|has_b_frames=1|sample_aspect_ratio=2:1|display_aspect_ratio=4:3|pix_fmt=yuv420p|level=12|color_range=tv|color_space=smpte170m|color_transfer=bt709|color_primaries=smpte170m|chroma_location=topleft|field_order=unknown|refs=2|is_avc=true|nal_length_size=4|id=0x1|r_frame_rate=30000/1001|avg_frame_rate=6372000/212521|time_base=1/90000|start_pts=0|start_time=0.000000|duration_ts=2125200|duration=23.613333|bit_rate=333874|max_bit_rate=N/A|bits_per_raw_sample=8|nb_frames=708|nb_read_frames=65|nb_read_packets=66|disposition:default=1|disposition:dub=0|disposition:original=0|disposition:comment=0|disposition:lyrics=0|disposition:karaoke=0|disposition:forced=0|disposition:hearing_impaired=0|disposition:visual_impaired=0|disposition:clean_effects=0|disposition:attached_pic=0|disposition:timed_thumbnails=0|disposition:captions=0|disposition:descriptions=0|disposition:metadata=0|disposition:dependent=0|disposition:still_image=0|tag:creation_time=2008-05-12T20:59:27.000000Z|tag:language=eng|tag:handler_name=Apple Video Media Handler|tag:vendor_id=appl|tag:encoder=H.264
stream|index=0|codec_name=h264|profile=77|codec_type=video|codec_tag_string=avc1|codec_tag=0x31637661|width=160|height=240|coded_width=160|coded_height=240|closed_captions=0|film_grain=0|has_b_frames=1|sample_aspect_ratio=2:1|display_aspect_ratio=4:3|pix_fmt=yuv420p|level=12|color_range=tv|color_space=smpte170m|color_transfer=bt709|color_primaries=smpte170m|chroma_location=topleft|field_order=progressive|refs=2|is_avc=true|nal_length_size=4|id=0x1|r_frame_rate=30000/1001|avg_frame_rate=6372000/212521|time_base=1/90000|start_pts=0|start_time=0.000000|duration_ts=2125200|duration=23.613333|bit_rate=333874|max_bit_rate=N/A|bits_per_raw_sample=8|nb_frames=708|nb_read_frames=65|nb_read_packets=66|disposition:default=1|disposition:dub=0|disposition:original=0|disposition:comment=0|disposition:lyrics=0|disposition:karaoke=0|disposition:forced=0|disposition:hearing_impaired=0|disposition:visual_impaired=0|disposition:clean_effects=0|disposition:attached_pic=0|disposition:timed_thumbnails=0|disposition:captions=0|disposition:descriptions=0|disposition:metadata=0|disposition:dependent=0|disposition:still_image=0|tag:creation_time=2008-05-12T20:59:27.000000Z|tag:language=eng|tag:handler_name=Apple Video Media Handler|tag:vendor_id=appl|tag:encoder=H.264
side_data|side_data_type=Display Matrix|displaymatrix=\n00000000: 131072 0 0\n00000001: 0 65536 0\n00000002: 0 0 1073741824\n|rotation=0
Loading…
Cancel
Save